Are(A)zione (Live)

Zione Live

Add: lihitehe1 - Date: 2020-12-17 17:12:17 - Views: 8596 - Clicks: 2057

Zio-ne, zi-one Are(A)zione (Live) The baby girl name Zione is also used as a boy name. See also the related category hebrew. Live albums definitely show a band&39;s true nature.

Wayside Music was established in January of 1980 as a mail order operation. Zione is not often used as a baby girl name. Zione has its origins in the Hebrew language. Outstanding live album with a sound quality better than in studio. Zione is a form of the name Zion. Area · Album · · 5 songs. From Are(A)zione (Italy, 1975). CD (Compact Disc) · SONY · · in PSYCHEDELIC / PROGRESSIVE / FOLK.

0 % Test CRC 89935AB0 Copy CRC 89935AB0 Cannot be verified as accurate (confidence 7) 4E47596B, AccurateRip returned CE06455E Copy OK Track 5. With Dennis Hopper, Ludwig Donath, Paul Mazursky, Howard Caine. Zion (Hebrew: צִיּוֹן / 𐤑𐤉𐤅𐤍 ‎ Ṣîyōn, LXX Σιών, also variously transliterated Sion, Tzion, Tsion, Tsiyyon) is a placename in the Hebrew Bible used as a synonym for Jerusalem as well as for the Land of Israel as a whole (see Names of Jerusalem).

According to classic 1970s dictums, 1975&39;s Are(A)zione is a "live" record by Italian vanguard progressive rock group Area. 9 % Test CRC 6A7557BA Copy CRC 6A7557BA Copy OK No errors occured End of status report. Zion is a place in the Old Testament - it&39;s. AREA - ARE(A)ZIONE. 0 % Track quality 100.

It was recorded during their 1975 tour in Milano, Napoli, Rimini and Reggio Emilia was released later the same year. Are(A)zione - Live 1975, a song by Area on Spotify We and our partners use cookies to personalize your experience, to show you ads based on your interests, and for measurement and analytics purposes. 0 % Track quality 99. Not in stock See details. Efstratíos Dimitríou (22.

Are (A)zione is the fourth album of the Jazz fusion band Area, and it was their first live album. Find helpful customer reviews and review ratings for Are(a)Zione (Live) at Amazon. Account & Lists Account Returns & Orders.

See what Zione Moon (love4gwe) has discovered on Pinterest, the world&39;s biggest collection of ideas. It is pronounced as Z AY OW Niy †. Are(A)zione (Live) Song Download- Listen Italian Are(A)zione (Live) MP3 song online free. Outside of the USA, the price will be adjusted as needed).

The CD comes in a jewel case. Zion is a place in the Old Testament - it&39;s. "Zione Solutions is an IT services company that advises clients on solutions architecture & best practices and provides world-class technical consulting services. About File Formats. Originally released in 1975. If we&39;re talking about just a place on a map, Zion would be equivalent with the city of Jerusalem. Genres: Avant-Prog, Jazz-Rock, Progressive Rock.

Conclusion: "Are (a)zione" is a great live album from a great live band. A tiny neo-Nazi organization struggles pathetically to succeed in a big city. This page was last edited on, at 01:25. But really, where Jerusalem is a place on the map, Zion is this idea that comes with lots of theological language surrounding it and theological imagery. Zion drive-by shooting injures 4. Listen to official albums & more.

Because our MP3s have no DRM, you can play it on any device that supports MP3, even on your iPod! Our goal is to deliver intuitive, flexible, cost effective, comprehensive solutions. Albums include Arbeit macht frei, Crac!

zione" with a brief excerpt of "Gioia e Rivoluzione. Live in Torino 1977 is a live album by Italian Jazz fusion band Area released in and recorded in 1977. The great thing about ARE(A)ZIONE is that it undoubtedly proves how brilliant and versatile AREA were as performers and musicians. Are(A)zione is the fourth album of the jazz fusion band Area, and it was the first live album.

It is not in the top 1000 names. is the fourth album of the Jazz fusion band Area, and it was the first live album. All structured data from the main, Property, Lexeme, and EntitySchema namespaces is available under the Creative Commons CC0 License; text in the other namespaces is available under the Creative Commons Attribution-ShareAlike License; additional terms may apply.

Directed by Stuart Rosenberg. "Welcome to our Internet store. Play Are(A)zione (Live) Italian album song MP3 by Area and download Are(A)zione (Live) song on Gaana.

Free-jazz was, though, the inspiration of their later years, particularly of their two swan songs: the title-track from the live Are(a)zione (Cramps, 1975), and Caos, off Maledetti (Cramps, 1976), featuring jazz saxophonist Steve Lacy and percussionist Paul Lytton. - Are(A)zione is a music live recording by AREA (Rock Progressivo Italiano/Progressive Rock) released in 1975 on cd, lp / vinyl and/or cassette. Area - Are(A)zione vinyl lp (due to size and weight, this price for the USA only. There have been many bands that sound spectacular in the studio but don&39;t have Are(A)zione (Live) the chops to pull off their musical adventures in a live setting. If you’ve heard of TV Zion, then chances are that you’re a huge movie buff since the app is a terrific portal to help you engage in streaming movies and TV shows from your smartphone, tablet, but there are a few caveats to using this app. It was recorded during their 1975 tour in Milano, Napoli, Rimini and Reggio Emilia was released later the same year. 5 % Extraction speed 4. They were left in the care of their grandmother, Fanny, and grandfather Moffat, and the children live with them along with aunts, uncles, and cousins.

For over 35 years, we have been dealing in avant, experimental, off-beat, progressive and rehearsal intensive rock, jazz, and contemporary music as well as many other undefinable musics from across the globe. , and Caution Radiation Area. Are(A)zione is the fourth album of the Jazz fusion band Area, and it was their first live album.

Zion definition, a hill in Jerusalem, on which the Temple was built (used to symbolize the city itself, especially as a religious or spiritual center). Area discography and songs: Music profile for Area, formed 1972. This was the only live. Read honest and unbiased product reviews from our users. 1979) Years Active: 1963 – 1979 Associated Acts: Area, I Ribelli Vocal Range: A1 - C♯7 Significant High Notes: C♯7 ("Passaggi 1, 2").

In this moment, when I&39;m writing this review, I only have three live albums from the band but I only know two of them, "Are (a)zione" and "Parigi-Lisbona". This page includes Are(A)zione&39;s : cover picture, songs / tracks list, members/musicians and line-up, different releases details, free MP3 download (stream), buy online links: amazon, ratings and detailled reviews by our experts. wav Peak level 82. A reissue of the 1975 album by the Italian avant/prog rock band Area, featuring the amazing Demetrio Stratos on vocals. View credits, reviews, tracks and shop for the 1975 Gatefold Vinyl release of Are(A)zione on Discogs. Our new desktop experience was built to be your music destination. 0 % Test CRC 4CE75C8B Copy CRC 4CE75C8B Copy OK Track 5 Filename D:&92;1 - Music + Stuff&92;05 - L&39;Internazionale.

Taking one song from each of its four previous albums (recorded at as many festivals) and adding a complete freakout on the title track for over 15 minutes, the band nonetheless gives the impression that this is from a single performance. ~ Patrick Little. Zion & Zion is rated the 1 Best Place to Work by the Phoenix Business Journal. Zione Solutions has a team of experts who have over two decades of experience in designing, deploying, and managing oracle database for the Fortune 500 companies across the globe. See more videos for Are(A)zione (Live). Zione’s mother died in when she was only 5 years old, leaving her an orphan along with her 4 siblings. Check out our people who are the backbone of our organization and success.

We offer full Are(A)zione (Live) support to clients and partner developers during integration and collaborate with customers to provide the ongoing support they need to navigate the ever-changing needs. Filename C:&92;Lossless&92;AreaAre(A)zione live flac&92;04 - Are(A)zione. While the album has uneven recording sound and a lot of between-song chatter, it makes up for it with more material than was on Area&39;s first live album, Are(A)zione. While side one of the album concentrates on live versions of studio classics, side two contains the title-track, a lengthy. Filename D:&92;1 - Music + Stuff&92;04 - Area(A)zione. Although i think there´s more to Area than what´s shown in Are (A)zione, the songs they picked out here to play are excellent and it´s always getting your atention, but i wanted to hear more Arbeit Frei tracks played live. It&39;s probably the best live album released by the group.

live album by Area. Listen to Are(A)zione (Live) on Spotify. Man dies after Zion shooting that injured 3 others, including boy One man has died after a Zion shooting injured three others, including an 8-year-old boy. MP3 is a digital audio format without digital rights management (DRM) technology. 2 X Track quality 100.

Are(A)zione (Live)

email: wovysu@gmail.com - phone:(462) 115-7320 x 8296

メルトダウン~ライヴ・イン・メキシコ - ソングブック バカラック

-> SPLIT UP
-> テキサス・ドッグ・ハウス・ブルース

Are(A)zione (Live) - リプルTwinkle Show


Sitemap 1

Heat Of The Moment: The Very Best Of Asia - ROCK SHIBATA CONCERT TOUR